osu file format v14

[General]
AudioFilename: Ghostly Galaxy - Super Mario Galaxy.mp3
AudioLeadIn: 1963
PreviewTime: 50851
Countdown: 0
SampleSet: Soft
StackLeniency: 0.8
Mode: 1
LetterboxInBreaks: 0
WidescreenStoryboard: 0

[Editor]
DistanceSpacing: 1
BeatDivisor: 4
GridSize: 32
TimelineZoom: 1

[Metadata]
Title:Waltz of the Boos
TitleUnicode:テレサワルツ
Artist:Mahito Yokota
ArtistUnicode:横田 真人
Creator:Nwolf
Version:Oni
Source:Super Mario Galaxy
Tags:Nintendo 3D Land Ghost House Boo Ghostly Sey mingmichael teresa
BeatmapID:391564
BeatmapSetID:160313

[Difficulty]
HPDrainRate:5
CircleSize:4
OverallDifficulty:6
ApproachRate:7
SliderMultiplier:1.4
SliderTickRate:1

[Events]
//Background and Video events
0,0,"ghostlygalaxymansion.jpg",0,0
//Break Periods
//Storyboard Layer 0 (Background)
//Storyboard Layer 1 (Fail)
//Storyboard Layer 2 (Pass)
//Storyboard Layer 3 (Foreground)
//Storyboard Sound Samples
//Background Colour Transformations
3,100,128,0,255

[TimingPoints]
97,483.870967741935,3,2,0,55,1,0
15338,-100,3,2,0,35,0,0
16064,-100,3,2,0,45,0,0
16306,-100,3,2,0,55,0,0
26951,-100,3,2,0,35,0,0
27919,-100,3,2,0,55,0,0
38564,-100,3,2,0,35,0,0
39290,-100,3,2,0,45,0,0
39532,-100,3,2,0,55,0,0
52113,-97.0873786407767,3,2,0,55,0,0
52355,-95.2380952380952,3,2,0,55,0,1
70500,-95.2380952380952,3,2,0,60,0,1
70742,-95.2380952380952,3,2,0,65,0,1
70984,-95.2380952380952,3,2,0,70,0,1
71226,-95.2380952380952,3,2,0,75,0,1
71467,-95.2380952380952,3,2,0,55,0,1
73403,-95.2380952380952,3,2,0,60,0,1
73645,-95.2380952380952,3,2,0,65,0,1
73887,-95.2380952380952,3,2,0,70,0,1
74129,-95.2380952380952,3,2,0,75,0,1
74371,-95.2380952380952,3,2,0,55,0,1
78484,-100,3,2,0,35,0,0

[Colours]
Combo1 : 4,4,4
Combo2 : 82,0,164
Combo3 : 141,15,145
Combo4 : 56,56,56
Combo5 : 162,162,162
Combo6 : 0,0,132

[HitObjects]
224,160,97,5,0,0:0:0:0:
224,160,338,1,0,0:0:0:0:
288,160,580,1,2,0:0:0:0:
224,160,822,1,0,0:0:0:0:
224,160,1064,1,0,0:0:0:0:
288,160,1306,1,2,0:0:0:0:
224,160,1548,1,0,0:0:0:0:
224,160,3000,1,0,0:0:0:0:
224,160,3242,1,0,0:0:0:0:
288,160,3484,1,2,0:0:0:0:
224,160,3726,1,0,0:0:0:0:
224,160,3967,1,0,0:0:0:0:
288,160,4209,1,2,0:0:0:0:
224,160,4451,1,0,0:0:0:0:
224,160,5419,1,0,0:0:0:0:
224,160,5903,1,0,0:0:0:0:
288,160,6387,1,2,0:0:0:0:
288,160,7113,1,2,0:0:0:0:
224,160,7355,1,0,0:0:0:0:
224,160,7838,1,0,0:0:0:0:
224,160,8806,1,0,0:0:0:0:
288,160,9290,1,2,0:0:0:0:
288,160,10016,1,2,0:0:0:0:
224,160,10258,1,0,0:0:0:0:
288,160,10742,1,2,0:0:0:0:
224,160,10984,1,0,0:0:0:0:
224,160,11226,1,0,0:0:0:0:
224,160,11709,1,0,0:0:0:0:
224,160,11951,1,0,0:0:0:0:
288,160,12193,1,2,0:0:0:0:
288,160,12919,1,2,0:0:0:0:
224,160,13161,1,0,0:0:0:0:
288,160,13645,1,2,0:0:0:0:
224,160,14371,1,0,0:0:0:0:
288,160,14613,1,2,0:0:0:0:
224,160,15338,1,0,0:0:0:0:
288,160,15580,1,2,0:0:0:0:
224,160,15822,1,0,0:0:0:0:
288,160,16064,1,2,0:0:0:0:
224,160,17516,1,0,0:0:0:0:
288,160,18000,1,2,0:0:0:0:
288,160,18726,1,2,0:0:0:0:
224,160,18967,1,0,0:0:0:0:
224,160,19693,1,0,0:0:0:0:
288,160,19935,1,2,0:0:0:0:
224,160,20419,1,0,0:0:0:0:
288,160,20903,1,2,0:0:0:0:
288,160,21629,1,2,0:0:0:0:
224,160,21871,1,0,0:0:0:0:
288,160,22355,1,2,0:0:0:0:
224,160,22597,1,0,0:0:0:0:
224,160,22838,1,0,0:0:0:0:
288,160,23080,1,2,0:0:0:0:
288,160,23322,1,2,0:0:0:0:
288,160,23806,1,2,0:0:0:0:
288,160,24532,1,2,0:0:0:0:
224,160,24774,1,0,0:0:0:0:
288,160,25258,1,2,0:0:0:0:
224,160,25984,1,0,0:0:0:0:
288,160,26226,1,2,0:0:0:0:
224,160,26951,1,0,0:0:0:0:
288,160,27193,1,2,0:0:0:0:
288,160,27435,1,2,0:0:0:0:
224,160,27677,1,0,0:0:0:0:
224,160,28605,1,0,0:0:0:0:
224,160,29129,1,0,0:0:0:0:
288,160,29613,1,2,0:0:0:0:
288,160,30338,1,2,0:0:0:0:
224,160,30580,1,0,0:0:0:0:
224,160,31064,1,0,0:0:0:0:
288,160,31548,1,2,0:0:0:0:
288,160,31790,1,2,0:0:0:0:
224,160,32032,1,0,0:0:0:0:
288,160,32516,1,2,0:0:0:0:
288,160,33242,1,2,0:0:0:0:
224,160,33484,1,0,0:0:0:0:
288,160,33967,1,2,0:0:0:0:
224,160,34451,1,0,0:0:0:0:
288,160,34693,1,2,0:0:0:0:
224,160,34935,1,0,0:0:0:0:
288,160,35419,1,2,0:0:0:0:
224,160,35903,1,0,0:0:0:0:
288,160,36145,1,2,0:0:0:0:
224,160,36387,1,0,0:0:0:0:
288,160,36871,1,2,0:0:0:0:
288,160,37355,1,2,0:0:0:0:
224,160,37597,1,0,0:0:0:0:
288,160,37838,1,2,0:0:0:0:
224,160,38564,1,0,0:0:0:0:
288,160,38806,1,2,0:0:0:0:
288,160,39048,1,2,0:0:0:0:
288,160,39290,1,2,0:0:0:0:
224,160,40742,1,0,0:0:0:0:
288,160,41226,1,2,0:0:0:0:
288,160,41951,1,2,0:0:0:0:
224,160,42193,1,0,0:0:0:0:
224,160,42919,1,0,0:0:0:0:
288,160,43161,1,2,0:0:0:0:
224,160,43645,1,0,0:0:0:0:
288,160,44129,1,2,0:0:0:0:
224,160,44371,1,0,0:0:0:0:
288,160,44613,1,2,0:0:0:0:
224,160,44855,1,0,0:0:0:0:
288,160,45097,1,2,0:0:0:0:
288,160,45580,1,2,0:0:0:0:
288,160,45822,1,2,0:0:0:0:
224,160,46064,1,0,0:0:0:0:
224,160,46306,1,0,0:0:0:0:
288,160,46548,1,2,0:0:0:0:
224,160,46790,1,0,0:0:0:0:
288,160,47032,1,2,0:0:0:0:
224,160,47516,1,0,0:0:0:0:
288,160,47758,1,2,0:0:0:0:
224,160,48000,1,0,0:0:0:0:
288,160,48484,1,2,0:0:0:0:
224,160,48967,1,0,0:0:0:0:
288,160,49209,1,2,0:0:0:0:
288,160,49451,1,2,0:0:0:0:
224,160,49693,1,0,0:0:0:0:
224,160,49935,1,0,0:0:0:0:
288,160,50177,1,2,0:0:0:0:
288,160,50419,1,2,0:0:0:0:
288,160,50661,1,2,0:0:0:0:
224,160,50903,1,0,0:0:0:0:
288,160,51145,1,2,0:0:0:0:
288,160,51266,1,2,0:0:0:0:
288,160,51387,1,2,0:0:0:0:
224,160,51629,1,0,0:0:0:0:
224,160,51750,1,0,0:0:0:0:
288,160,51871,1,2,0:0:0:0:
224,160,52113,1,0,0:0:0:0:
288,224,52355,5,6,0:0:0:0:
288,160,52596,1,2,0:0:0:0:
288,160,52838,1,2,0:0:0:0:
224,224,53080,1,4,0:0:0:0:
288,160,53322,1,2,0:0:0:0:
288,160,53806,1,2,0:0:0:0:
224,160,54048,1,0,0:0:0:0:
288,160,54290,1,2,0:0:0:0:
224,224,54774,1,4,0:0:0:0:
224,224,55258,1,4,0:0:0:0:
224,160,55500,1,0,0:0:0:0:
288,160,55742,1,2,0:0:0:0:
224,224,55984,1,4,0:0:0:0:
224,160,56226,1,0,0:0:0:0:
288,160,56467,1,2,0:0:0:0:
224,160,56709,1,0,0:0:0:0:
224,160,56951,1,0,0:0:0:0:
288,160,57193,1,2,0:0:0:0:
224,224,57677,1,4,0:0:0:0:
288,224,58161,1,6,0:0:0:0:
288,160,58403,1,2,0:0:0:0:
288,160,58645,1,2,0:0:0:0:
224,224,58887,1,4,0:0:0:0:
288,160,59129,1,2,0:0:0:0:
288,160,59613,1,2,0:0:0:0:
224,160,59855,1,0,0:0:0:0:
288,160,60096,1,2,0:0:0:0:
224,224,60580,1,4,0:0:0:0:
224,224,61064,1,4,0:0:0:0:
288,160,61306,1,2,0:0:0:0:
288,160,61548,1,2,0:0:0:0:
224,224,61790,1,4,0:0:0:0:
288,160,62032,1,2,0:0:0:0:
288,160,62274,1,2,0:0:0:0:
224,160,62516,1,0,0:0:0:0:
288,160,62758,1,2,0:0:0:0:
288,160,63000,1,2,0:0:0:0:
224,224,63484,1,4,0:0:0:0:
288,224,63967,1,6,0:0:0:0:
224,160,64209,1,0,0:0:0:0:
224,160,64451,1,0,0:0:0:0:
288,224,64693,1,6,0:0:0:0:
288,160,64935,1,2,0:0:0:0:
224,224,65419,1,4,0:0:0:0:
288,160,65903,1,2,0:0:0:0:
224,160,66145,1,0,0:0:0:0:
224,160,66387,1,0,0:0:0:0:
288,160,66629,1,2,0:0:0:0:
224,224,66871,1,4,0:0:0:0:
288,160,67355,1,2,0:0:0:0:
224,224,67596,1,4,0:0:0:0:
224,160,67838,1,0,0:0:0:0:
288,160,68080,1,2,0:0:0:0:
224,224,68322,1,4,0:0:0:0:
224,160,68806,1,0,0:0:0:0:
288,160,69048,1,2,0:0:0:0:
224,224,69290,1,4,0:0:0:0:
288,224,69774,1,6,0:0:0:0:
224,160,70016,1,0,0:0:0:0:
288,160,70258,1,2,0:0:0:0:
224,160,70500,1,0,0:0:0:0:
288,160,70742,1,2,0:0:0:0:
288,160,70984,1,2,0:0:0:0:
288,224,71226,1,6,0:0:0:0:
288,160,71709,1,2,0:0:0:0:
224,160,71951,1,0,0:0:0:0:
288,160,72193,1,2,0:0:0:0:
288,224,72677,1,6,0:0:0:0:
224,160,72919,1,0,0:0:0:0:
288,160,73161,1,2,0:0:0:0:
224,160,73403,1,0,0:0:0:0:
224,160,73645,1,0,0:0:0:0:
288,160,73887,1,2,0:0:0:0:
288,224,74129,1,6,0:0:0:0:
288,160,74613,1,2,0:0:0:0:
288,160,75096,1,2,0:0:0:0:
288,224,75580,1,6,0:0:0:0:
224,160,75822,1,0,0:0:0:0:
288,160,76064,1,2,0:0:0:0:
224,160,76306,1,0,0:0:0:0:
224,224,76548,1,4,0:0:0:0:
288,224,77032,1,6,0:0:0:0:
288,160,78484,1,2,0:0:0:0:
